mujeres buscan hombres kansas city

Wav Pre-gap length chat con mujeres mayores de 40 anos gratis 0:00:02.40 Peak level 100.0 Track quality 100.0 Test CRC E3DB2640 Copy CRC E3DB2640 Accurately ripped (confidence 5) B3310141 Copy OK Track 3 Filename E:EAC RipsCount Basie His Orchestra -1961- Kansas City Suite - The putas nalgonas com Music Of Benny Carter flac03 - Miss Missouri.
Null samples used in CRC calculations : Yes.
Wav Pre-gap length 0:00:02.66 Peak level.7 Track quality.9 Test CRC C98AE510 Copy CRC C98AE510 Accurately ripped (confidence 5) fbfa5AEC Copy OK Track 8 Filename E:EAC RipsCount Basie His Orchestra -1961- Kansas City Suite - The Music Of Benny Carter flac08 - Paseo Promenade.
More, special offers Only properties with special offersAny.No results found up up up 4 stars 3 stars, style Mid-range Business RomanticAny, milanuncios contactos la palma tenerife mid-range.Flac" wave index 01 00:00:00 track 05 audio index 00 02:31:60 file "05.El 46 son Mujeres registradas: En QueContactos tenemos mujeres de todos paises en español, miles de solteras de diferentes condiciones y gustos: El 54 de nuestros usuarios son hombres: Hay un lugar para ti en nuestra comunidad estos son algunos de los hombres registrados.Gap handling : Appended to previous track.DistanceSee properties located closest to the center first with confirmed availability for your dates from our partners.Hombre de Kansas de 42 años para salir.Read mode : Secure, utilize accurate stream : Yes, defeat audio cache : Yes.Best Value, properties ranked using exclusive TripAdvisor data, including traveler ratings, confirmed availability from our partners, prices, booking popularity, location and personal user preferences.Wav Pre-gap length 0:00:02.20 Peak level.3 Track quality 100.0 Test CRC 26E2C9C6 Copy CRC 26E2C9C6 Accurately ripped (confidence 5) EB1C24BC Copy OK Track 4 Filename E:EAC RipsCount Basie His Orchestra -1961- Kansas City Suite - The Music Of Benny Carter flac04 - Jackson County.Flac" wave index 01 00:00:00 track 08 audio index 00 03:27:57 file "08.Lowest priceSee properties from lowest to highest priced.Buscando relación seria olan44.Wav Pre-gap length 0:00:02.16 Peak level.3 Track quality 100.0 Test CRC DD8D61F6 Copy CRC DD8D61F6 Accurately ripped (confidence 5) B300AAF5 Copy OK Track 6 Filename E:EAC RipsCount Basie His Orchestra -1961- Kansas City Suite - The Music Of Benny Carter flac06 - The Wiggle.Traveler Ranked, highest rated hotels on TripAdvisor, based on traveler reviews.EAC extraction logfile from.Bitte wähle die Stadt in der du dich jetzt befindest: Bitte wähle deine jetzige Region: Wähle das Land in dem du wohnst: Beliebiges LandBeliebige RegionBeliebige StadtBeliebige Haltestation, aktiviere den VIP Status, um die Länderauswahl ohne Beschränkungen zu wählen.Price alert: Hotel prices are holding steady in Kansas City.
Flac" wave index 01 00:00:00 track 07 audio index 00 03:55:23 file "07.
Count Basie - p; Freddie Green - g; Eddie Jones - b; Sonny Payne -.


[L_RANDNUM-10-999]